Friday, December 8, 2017

Michael Wendroff


More Buddah goodness, by request.

DIG IT

3 comments:

  1. EW, thank you very much! Very quickly. Just great!

    ReplyDelete
  2. CUE Files from this album:
    _____________________

    REM DATE 1974
    PERFORMER "Michael Wendroff"
    TITLE "Southpaw"
    FILE "Michael Wendroff - Southpaw.mp3" WAVE
    TRACK 01 AUDIO
    TITLE "Southpaw"
    INDEX 01 00:00:00
    TRACK 02 AUDIO
    TITLE "Here We Are"
    INDEX 01 03:06:00
    TRACK 03 AUDIO
    TITLE "What Is Love"
    INDEX 01 06:39:00
    TRACK 04 AUDIO
    TITLE "Some Day"
    INDEX 01 09:32:00
    TRACK 05 AUDIO
    TITLE "Only A Fool Fools With Love"
    INDEX 01 13:08:00
    TRACK 06 AUDIO
    TITLE "Take My Love With You"
    INDEX 01 16:32:00
    TRACK 07 AUDIO
    TITLE "Empty Beaches"
    INDEX 01 19:31:00
    TRACK 08 AUDIO
    TITLE "Come On Baby"
    INDEX 01 22:56:00
    TRACK 09 AUDIO
    TITLE "Lost Planet"
    INDEX 01 26:17:00
    TRACK 10 AUDIO
    TITLE "Lullabye"
    INDEX 01 34:06:00

    ReplyDelete
  3. Could you possibly reupload this one? I've been waiting to hear it for a while!

    ReplyDelete