Sunday, May 11, 2014

Jim Horn


Nice vinyl rip of sax-y soul from ubiquitous sessioner Jim Horn for you on this Mother's Day.

DIG IT

3 comments:

  1. Elliott, thank you very much!!!.
    Always wanted to listen to this album. But never could find it. And she joy. Listen with great pleasure.

    Thank you!

    ReplyDelete
  2. Jim Horn - Jim's Horns.cue
    ------------------------------

    REM DATE 1973
    PERFORMER "Jim Horn"
    TITLE "Jim's Horns"
    FILE "01 Side One.mp3" WAVE
    TRACK 01 AUDIO
    TITLE "We'll Get Over"
    INDEX 01 00:00:00
    TRACK 02 AUDIO
    TITLE "Moody"
    INDEX 01 03:51:00
    TRACK 03 AUDIO
    TITLE "San Camaro"
    INDEX 01 08:06:30
    TRACK 04 AUDIO
    TITLE "In And Out Of Sunshine"
    INDEX 01 12:28:00
    TRACK 05 AUDIO
    TITLE "Mandy"
    INDEX 01 15:37:00
    FILE "02 Side Two.mp3" WAVE
    TRACK 06 AUDIO
    TITLE "Rainy Day Woman"
    INDEX 01 00:00:00
    TRACK 07 AUDIO
    TITLE "Lady From Louisville"
    INDEX 01 04:34:00
    TRACK 08 AUDIO
    TITLE "To Hurt A Poet"
    INDEX 01 07:29:00
    TRACK 09 AUDIO
    TITLE "Half Moon"
    INDEX 01 11:13:00

    ReplyDelete
  3. Wow, me too!
    Thank you for this record and your speed and determination.
    Keep on good working!
    It's always pleasure visit your blog.

    ReplyDelete