Wednesday, February 12, 2014

Booker T and Priscilla


Fresh vinyl rip for you. Features "Bobby Dylan" on harmonica, Chris Ethridge of the Flying Burrito Brothers on bass and Johnny Barbata of the Turtles/Jefferson Starship on drums. Careful listeners will notice the piano motif from "Layla" popping up on one of the tunes. A question arises: who stole it from whom? Overall, a pretty unusual record. A bit of mellow funk, some gospel, some light soul. Priscilla's voice can grate at times, especially when she's getting into it. BTW, if someone has Booker T and Priscilla's album "Home Grown" and would like to share it, please put a link in the comments. Thanks.

DIG IT

4 comments:

  1. Cue File:
    ___________________

    REM DATE 1973
    PERFORMER "Booker T. & Priscilla Jones"
    TITLE "Chronicles"
    FILE "01 Side One.mp3" WAVE
    TRACK 01 AUDIO
    TITLE "Fly"
    INDEX 01 00:00:00
    TRACK 02 AUDIO
    TITLE "When Two People are in Love"
    INDEX 01 04:23:00
    TRACK 03 AUDIO
    TITLE "Rings Around the World"
    INDEX 01 08:24:00
    TRACK 04 AUDIO
    TITLE "Wild Fox"
    INDEX 01 14:21:00
    FILE "02 Side Two.mp3" WAVE
    TRACK 05 AUDIO
    TITLE "Mendocino"
    INDEX 01 00:00:00
    TRACK 06 AUDIO
    TITLE "The Crippled Crow"
    INDEX 01 03:40:00
    TRACK 07 AUDIO
    TITLE "Cherokee River"
    INDEX 01 07:42:30
    TRACK 08 AUDIO
    TITLE "Time"
    INDEX 01 11:18:00
    TRACK 09 AUDIO
    TITLE "Wounded Knee'"
    INDEX 01 15:58:00

    ReplyDelete
  2. The file is no longer available. Can you please share it again ? As for the Layla / Time songs link you can check https://en.wikipedia.org/wiki/Layla .

    ReplyDelete
  3. The file is no longer available. Can you please share it again ?

    ReplyDelete
  4. Hello, the links are dead. Could you do it again please. Thank you

    ReplyDelete