Thursday, February 27, 2014

Silverbird


Here's my vinyl rip of "Broken Treaties," the debut album from Silverbird. I think I'm more partial to their second album, which you can find in the January 27th entry.

DIG IT

4 comments:

  1. Hooray! Hooray! Hooray!
    How long I've been dreaming to find and listen to this album.
    Thank you so much!

    ReplyDelete
  2. CUE File from album "Broken Treaties"
    --------------------------------

    REM DATE 1971
    PERFORMER "Silverbird"
    TITLE "Broken Treaties"
    FILE "01 Side One.mp3" WAVE
    TRACK 01 AUDIO
    TITLE "Custer's Last Stand"
    INDEX 01 00:00:00
    TRACK 02 AUDIO
    TITLE "Friends"
    INDEX 01 03:42:00
    TRACK 03 AUDIO
    TITLE "Long At Last"
    INDEX 01 07:17:00
    TRACK 04 AUDIO
    TITLE "Would You"
    INDEX 01 10:04:00
    TRACK 05 AUDIO
    TITLE "Fight"
    INDEX 01 13:18:00
    TRACK 06 AUDIO
    TITLE "Poor Boy"
    INDEX 01 16:44:00
    FILE "02 Side Two.mp3" WAVE
    TRACK 07 AUDIO
    TITLE "Broken Treaties"
    INDEX 01 00:00:00
    TRACK 08 AUDIO
    TITLE "Sonny"
    INDEX 01 03:23:30
    TRACK 09 AUDIO
    TITLE "At The Party"
    INDEX 01 06:34:00
    TRACK 10 AUDIO
    TITLE "Violet"
    INDEX 01 12:38:00

    ReplyDelete
  3. Today, February 28 I anniversary.
    I was 55 years old. But my soul is much younger.)

    ReplyDelete
  4. Interesting album.
    Could not find anywhere the last track of the album.
    Perhaps he will be to you. I'm looking for him.
    --------------------------
    The Coronados - Hey, Love! (1969)

    Artist: The Coronados
    Album: Hey, Love!
    Label: Jubilee Records
    Catalog#: JGS 8022
    Format: Vinyl, LP, Album
    Country: US
    Released: 1969
    Genre: Rock, Pop

    http://www.psiram.com/en/index.php/J._Reuben_Silverbird

    Side One:
    A1. Hey Love - 02:32
    A2. My Melancholy Baby - 02:53
    A3. Love Is Blue - 02:20
    A4. Legend Of The Volcanoes - 03:14
    A5. Peepin' N Hidin' - 02:20
    A6. Good Morning New Day - 02:03
    Side Two:
    B1. Those Were The Days - 03:22
    B2. The World Belongs To You - 02:23
    B3. Trip To Loveland - 02:59
    B4. Your Love Belongs To Everyone - 02:33
    B5. My Elise - 02:27
    B6. Not At All

    http://www21.zippyshare.com/v/45264134/file.html

    ReplyDelete