Wednesday, February 19, 2014

More Kyle


This fills a request from Rock Archeologia. A nice album, very different in feel from the one I posted yesterday.

DIG IT

4 comments:

  1. Great! Very quickly. Thank you very much!

    Alex (Russia)

    ReplyDelete
  2. CUE File:
    --------------------
    REM DATE 1973
    PERFORMER "Kyle"
    TITLE "Kyle"
    FILE "Side One & Two.mp3" WAVE
    TRACK 01 AUDIO
    TITLE "She Brings Sunshine"
    INDEX 01 00:00:00
    TRACK 02 AUDIO
    TITLE "Summer Days"
    INDEX 01 03:14:00
    TRACK 03 AUDIO
    TITLE "The Wrong Song"
    INDEX 01 05:19:00
    TRACK 04 AUDIO
    TITLE "Red, White and Blue"
    INDEX 01 09:42:00
    TRACK 05 AUDIO
    TITLE "Prelude To Stoney Road"
    INDEX 01 13:18:00
    TRACK 06 AUDIO
    TITLE "Stoney Road"
    INDEX 01 18:05:00
    TRACK 07 AUDIO
    TITLE "Dream Maker"
    INDEX 01 23:07:00
    TRACK 08 AUDIO
    TITLE "Face The Music"
    INDEX 01 27:03:00
    TRACK 09 AUDIO
    TITLE "She"
    INDEX 01 31:04:00

    ReplyDelete
  3. Unfortunately, outdated link...

    ReplyDelete