Sunday, March 16, 2014

Mark Spoelstra


A vinyl rip of Mark Spoelstra's self-titled album, which was produced by James William Guercio (of Chicago fame).

DIG IT

2 comments:

  1. Thanks!

    Personnel:
    Mark Spoelstra - guitar
    Davd Blue - guitar
    Roy Blumenfeld - drums
    Harvey Brooks - bass
    James Burton - guitar
    Mike Deasy - guitar
    Jim Gordon - drums
    Mitch Greenhill - guitar, organ
    Joe Osborn - bass
    Meyer Snifin - violin
    Ed Trickett - dulcimer
    Michel Rubini - keyboards

    ReplyDelete
  2. CUE File from this album:
    ______________________

    REM DATE 1969
    PERFORMER "Mark Spoelstra"
    TITLE "Mark Spoelstra"
    FILE "01 Side One.mp3" WAVE
    TRACK 01 AUDIO
    TITLE "Hobo Poet"
    INDEX 01 00:00:00
    TRACK 02 AUDIO
    TITLE "Not So Inclined To Be Kind"
    INDEX 01 02:55:00
    TRACK 03 AUDIO
    TITLE "Thanks Anyway"
    INDEX 01 05:59:30
    TRACK 04 AUDIO
    TITLE "Sound Of The Rainbow"
    INDEX 01 09:26:00
    TRACK 05 AUDIO
    TITLE "You Should Know"
    INDEX 01 12:25:00
    TRACK 06 AUDIO
    TITLE "Meadow Mountain Top"
    INDEX 01 15:42:00
    FILE "02 Side Two.mp3" WAVE
    TRACK 07 AUDIO
    TITLE "Don Jaun's Turn To Bow"
    INDEX 01 00:00:00
    TRACK 08 AUDIO
    TITLE "Song Of Sad Bottles"
    INDEX 01 02:14:00
    TRACK 09 AUDIO
    TITLE "Mona Sue"
    INDEX 01 06:31:00
    TRACK 10 AUDIO
    TITLE "Dim Lights And Bar Fights"
    INDEX 01 09:45:00
    TRACK 11 AUDIO
    TITLE "Child Statue'"
    INDEX 01 13:15:00
    TRACK 12 AUDIO
    TITLE "Empty Words"
    INDEX 01 17:15:30

    ReplyDelete