Monday, January 27, 2014

Silverbird


If anyone has their other album, "Broken Treaties," please share it in the comments. Thanks.

DIG IT

4 comments:

  1. This album is dedicated to Ginger. Through the years, it has become established and realized that the longer a band sticks together, the tighter and more cohesive it becomes. After all, it makes sence. Practice, common experience and the unpredictable changes a group of people literally living together must go through make a tighter unit.
    So if a time-tested band is a tight unit, then a time-tested family is an even tighter one. Silverbird is a tightly knit band and an even more tightly knit family. Originally from New Mexico, Silverbird consists of brothers Gilbert, 15, Mark 17, and Perry, 16, along with nephew Rudy, 20, mother Virginia and father Reuben. As to the ages of Ma and Pa, Virginia told me to ask Reuben and Reuben told me to ask Virginia.
    Their music is based on harmonies that are bellringing and melodies that are so encompassing that a message, it's to tale a little off your back, remove a worry or two and maybe even add several smiles to your day. As far as I'm concerned, that's plenty. (back cover)

    Recording Engineers: Tim Geelon, Stan Tonkel
    Mixing Enginers: Mike Figlio and M. C. Rather
    Remixs Enginer: Jack Ashkinazy
    Produced and Arranged by Paul Leka

    Warm and sincere thanks to: Clive Davis.
    Special thanks to:
    Kip Cohen, Steve Popovich, George Brever, Larry Harris, Jonathan Coffino.
    Phyllis Blackman and the entire Columbia staff too numerous to mention.
    Last but not least, thanks to our producer Paul Leka who put it all together.
    ----------------------------------------

    Pluss+ cue file:
    ----------------------
    REM DATE 1972
    PERFORMER "Silverbird"
    TITLE "Getting Together"
    FILE "01 Side One.mp3" WAVE
    TRACK 01 AUDIO
    TITLE "Getting Together"
    INDEX 01 00:00:00
    TRACK 02 AUDIO
    TITLE "You're Too Young"
    INDEX 01 02:45:00
    TRACK 03 AUDIO
    TITLE "The Summer's Gone"
    INDEX 01 05:52:40
    TRACK 04 AUDIO
    TITLE "You"
    INDEX 01 10:26:00
    TRACK 05 AUDIO
    TITLE "Just Thinking Of You"
    INDEX 01 14:13:00
    FILE "02 Side Two.mp3" WAVE
    TRACK 06 AUDIO
    TITLE "Meet Me After School"
    INDEX 01 00:00:00
    TRACK 07 AUDIO
    TITLE "She's Gone"
    INDEX 01 03:03:00
    TRACK 08 AUDIO
    TITLE "Always By My Side"
    INDEX 01 05:51:00
    TRACK 09 AUDIO
    TITLE "My Love"
    INDEX 01 08:24:00
    TRACK 10 AUDIO
    TITLE "Gotta Crackin'"
    INDEX 01 12:48:00
    TRACK 11 AUDIO
    TITLE "You're The One"
    INDEX 01 16:08:00
    -------------------------

    ReplyDelete
  2. Wanted!
    Looking album Jim Price - Kids Nowadays Ain't Got No Shame (1971)
    Who has this album? Share.

    ReplyDelete
  3. Do you have an album Silverbird - Broken Treatis (1971)?

    ReplyDelete
  4. Sorry ... I'm looking for that one as well.

    ReplyDelete